Search:

Gavin Harrison

Format Post in Entertainment BY Rhythmic Designs

Shared By Guest

The author of Gavin Harrison is Rhythmic Designs Gavin Harrison - Rhythmic Designs DVDRip | English | MKV | 720 x 480 | AVC ~1500 kbps | 29.This title is available at BookMoving on Rhythmic Designs's eBooks, 97 fps AC-3 | 320 kbps | 48.Gavin Harrison Textbook, course, ebook, pdf, download at bookmoving 0 KHz | 2 channels | 02:30:00 | 2.15 GB Genre: elearning / Percussion “Rhythmic Designs expands on the groundbreaking polyrhythmic, polymetric concepts covered in Harrison’s previously published Rhythmic Illusions, Rhythmic Visions and Rhythmic Horizons books and videos by offering detailed analysis and transcriptions of twenty drum tracks from the recent Gavin Harrison & 05Ric albums “Drop” and “Circles” (featuring guitarist Robert Fripp and keyboardists Dave Stewart and Gary Sanctuary). Along with the 204-page book of note-for-note transcriptions and practice exercises, the double-sided companion DVD features more than two-and-a-half hours of video packed with descriptions and discussions of the drum parts, set-ups, tuning and recording process—plus six minus-drums, play-along tracks.” MediaInfo: Side AFormat : Matroska Format version : Version 2 File size : 793 MiB Duration : 1h 0mn Overall bit rate : 1 822 Kbps Encoded date : UTC 2012-01-16 12:54:04 Writing application : mkvmerge v4.9.1 ('Ich will') built on Jul 11 2011 23:53:15 Writing library : libebml v1.2.1 + libmatroska v1.1.1 Video ID : 1 Format : AVC Format/Info : Advanced Video Codec Format profile : High@L4.1 Format settings, CABAC : Yes Format settings, ReFrames : 4 frames Codec ID : V_MPEG4/ISO/AVC Duration : 1h 0mn Bit rate : 1 500 Kbps Width : 720 pixels Height : 480 pixels Display aspect ratio : 4:3 Original display aspect ratio : 4:3 Frame rate : 29.970 fps Standard : NTSC Color space : YUV Chroma subsampling : 4:2:0 Bit depth : 8 bits Scan type : Progressive Bits/(Pixel*Frame) : 0.145 Stream size : 638 MiB (80%) Writing library : x264 core 116 r2074 2641b9e Encoding settings : cabac=1 / ref=3 / deblock=1:0:0 / analyse=0x3:0x113 / me=hex / subme=7 / psy=1 / psy_rd=1.00:0.00 / mixed_ref=1 / me_range=16 / chroma_me=1 / trellis=1 / 8x8dct=1 / cqm=0 / deadzone=21,11 / fast_pskip=1 / chroma_qp_offset=-2 / threads=6 / sliced_threads=0 / nr=0 / decimate=1 / interlaced=0 / bluray_compat=0 / constrained_intra=0 / bframes=3 / b_pyramid=2 / b_adapt=1 / b_bias=0 / direct=1 / weightb=1 / open_gop=0 / weightp=2 / keyint=250 / keyint_min=25 / scenecut=40 / intra_refresh=0 / rc_lookahead=40 / rc=2pass / mbtree=1 / bitrate=1500 / ratetol=1.0 / qcomp=0.60 / qpmin=0 / qpmax=69 / qpstep=4 / cplxblur=20.0 / qblur=0.5 / ip_ratio=1.40 / aq=1:1.00 Language : English Default : Yes Forced : No Audio ID : 2 Format : AC-3 Format/Info : Audio Coding 3 Mode extension : CM (complete main) Codec ID : A_AC3 Duration : 1h 0mn Bit rate mode : Constant Bit rate : 320 Kbps Channel(s) : 2 channels Channel positions : Front: L R Sampling rate : 48.0 KHz Bit depth : 16 bits Compression mode : Lossy Stream size : 139 MiB (18%) Language : English Default : Yes Forced : No Menu 00:00:00.000 : en:Intro 00:02:39.634 : en:Unsettled 00:14:20.968 : en:Sailing 00:18:24.302 : en:Life 00:27:14.536 : en:Sometime 00:29:52.903 : en:For Lack Of 00:37:32.936 : en:Clock 00:41:31.503 : en:Okay 00:46:24.471 : en:Where are You Going? 00:51:05.439 : en:Centered Format : Matroska Format version : Version 2 File size : 384 MiB Duration : 29mn 32s Overall bit rate : 1 820 Kbps Encoded date : UTC 2012-01-16 12:54:42 Writing application : mkvmerge v4.9.1 ('Ich will') built on Jul 11 2011 23:53:15 Writing library : libebml v1.2.1 + libmatroska v1.1.1 Video ID : 1 Format : AVC Format/Info : Advanced Video Codec Format profile : High@L4.1 Format settings, CABAC : Yes Format settings, ReFrames : 4 frames Codec ID : V_MPEG4/ISO/AVC Duration : 29mn 32s Bit rate : 1 500 Kbps Width : 720 pixels Height : 480 pixels Display aspect ratio : 4:3 Original display aspect ratio : 4:3 Frame rate : 29.970 fps Standard : NTSC Color space : YUV Chroma subsampling : 4:2:0 Bit depth : 8 bits Scan type : Progressive Bits/(Pixel*Frame) : 0.145 Stream size : 309 MiB (80%) Writing library : x264 core 116 r2074 2641b9e Encoding settings : cabac=1 / ref=3 / deblock=1:0:0 / analyse=0x3:0x113 / me=hex / subme=7 / psy=1 / psy_rd=1.00:0.00 / mixed_ref=1 / me_range=16 / chroma_me=1 / trellis=1 / 8x8dct=1 / cqm=0 / deadzone=21,11 / fast_pskip=1 / chroma_qp_offset=-2 / threads=6 / sliced_threads=0 / nr=0 / decimate=1 / interlaced=0 / bluray_compat=0 / constrained_intra=0 / bframes=3 / b_pyramid=2 / b_adapt=1 / b_bias=0 / direct=1 / weightb=1 / open_gop=0 / weightp=2 / keyint=250 / keyint_min=25 / scenecut=40 / intra_refresh=0 / rc_lookahead=40 / rc=2pass / mbtree=1 / bitrate=1500 / ratetol=1.0 / qcomp=0.60 / qpmin=0 / qpmax=69 / qpstep=4 / cplxblur=20.0 / qblur=0.5 / ip_ratio=1.40 / aq=1:1.00 Language : English Default : Yes Forced : No Audio ID : 2 Format : AC-3 Format/Info : Audio Coding 3 Mode extension : CM (complete main) Codec ID : A_AC3 Duration : 29mn 32s Bit rate mode : Constant Bit rate : 320 Kbps Channel(s) : 2 channels Channel positions : Front: L R Sampling rate : 48.0 KHz Bit depth : 16 bits Compression mode : Lossy Stream size : 67.6 MiB (18%) Language : English Default : Yes Forced : No Menu 00:00:00.000 : en:Hi Hat 00:05:06.901 : en:Bass Drum 00:09:37.802 : en:Rides 00:13:51.136 : en:Snare 00:19:57.603 : en:Cymbals 00:24:05.837 : en:Gavin/05Ric 00:28:45.870 : en:Double DVD Side BFormat : Matroska Format version : Version 2 File size : 614 MiB Duration : 47mn 5s Overall bit rate : 1 822 Kbps Encoded date : UTC 2012-01-16 13:06:02 Writing application : mkvmerge v4.9.1 ('Ich will') built on Jul 11 2011 23:53:15 Writing library : libebml v1.2.1 + libmatroska v1.1.1 Video ID : 1 Format : AVC Format/Info : Advanced Video Codec Format profile : High@L4.1 Format settings, CABAC : Yes Format settings, ReFrames : 4 frames Codec ID : V_MPEG4/ISO/AVC Duration : 47mn 5s Bit rate : 1 500 Kbps Width : 720 pixels Height : 480 pixels Display aspect ratio : 4:3 Original display aspect ratio : 4:3 Frame rate : 29.970 fps Standard : NTSC Color space : YUV Chroma subsampling : 4:2:0 Bit depth : 8 bits Scan type : Progressive Bits/(Pixel*Frame) : 0.145 Stream size : 494 MiB (80%) Writing library : x264 core 116 r2074 2641b9e Encoding settings : cabac=1 / ref=3 / deblock=1:0:0 / analyse=0x3:0x113 / me=hex / subme=7 / psy=1 / psy_rd=1.00:0.00 / mixed_ref=1 / me_range=16 / chroma_me=1 / trellis=1 / 8x8dct=1 / cqm=0 / deadzone=21,11 / fast_pskip=1 / chroma_qp_offset=-2 / threads=6 / sliced_threads=0 / nr=0 / decimate=1 / interlaced=0 / bluray_compat=0 / constrained_intra=0 / bframes=3 / b_pyramid=2 / b_adapt=1 / b_bias=0 / direct=1 / weightb=1 / open_gop=0 / weightp=2 / keyint=250 / keyint_min=25 / scenecut=40 / intra_refresh=0 / rc_lookahead=40 / rc=2pass / mbtree=1 / bitrate=1500 / ratetol=1.0 / qcomp=0.60 / qpmin=0 / qpmax=69 / qpstep=4 / cplxblur=20.0 / qblur=0.5 / ip_ratio=1.40 / aq=1:1.00 Language : English Default : Yes Forced : No Audio ID : 2 Format : AC-3 Format/Info : Audio Coding 3 Mode extension : CM (complete main) Codec ID : A_AC3 Duration : 47mn 5s Bit rate mode : Constant Bit rate : 320 Kbps Channel(s) : 2 channels Channel positions : Front: L R Sampling rate : 48.0 KHz Bit depth : 16 bits Compression mode : Lossy Stream size : 108 MiB (18%) Language : English Default : Yes Forced : No Menu 00:00:00.000 : en:Circles 00:04:02.033 : en:Source 00:08:59.467 : en:Last Call 00:13:25.001 : en:Crisis 00:18:09.168 : en:Fasith 00:23:52.468 : en:Scar 00:32:04.369 : en:Break 00:36:28.303 : en:Beyond The 'A' 00:41:17.904 : en:Eye 00:44:42.904 : en:Goodbye Format : Matroska Format version : Version 2 File size : 277 MiB Duration : 21mn 15s Overall bit rate : 1 819 Kbps Encoded date : UTC 2012-01-16 13:06:35 Writing application : mkvmerge v4.9.1 ('Ich will') built on Jul 11 2011 23:53:15 Writing library : libebml v1.2.1 + libmatroska v1.1.1 Video ID : 1 Format : AVC Format/Info : Advanced Video Codec Format profile : High@L4.1 Format settings, CABAC : Yes Format settings, ReFrames : 4 frames Codec ID : V_MPEG4/ISO/AVC Duration : 21mn 15s Bit rate : 1 500 Kbps Width : 720 pixels Height : 480 pixels Display aspect ratio : 4:3 Original display aspect ratio : 4:3 Frame rate : 29.970 fps Standard : NTSC Color space : YUV Chroma subsampling : 4:2:0 Bit depth : 8 bits Scan type : Progressive Bits/(Pixel*Frame) : 0.145 Stream size : 222 MiB (80%) Writing library : x264 core 116 r2074 2641b9e Encoding settings : cabac=1 / ref=3 / deblock=1:0:0 / analyse=0x3:0x113 / me=hex / subme=7 / psy=1 / psy_rd=1.00:0.00 / mixed_ref=1 / me_range=16 / chroma_me=1 / trellis=1 / 8x8dct=1 / cqm=0 / deadzone=21,11 / fast_pskip=1 / chroma_qp_offset=-2 / threads=6 / sliced_threads=0 / nr=0 / decimate=1 / interlaced=0 / bluray_compat=0 / constrained_intra=0 / bframes=3 / b_pyramid=2 / b_adapt=1 / b_bias=0 / direct=1 / weightb=1 / open_gop=0 / weightp=2 / keyint=250 / keyint_min=25 / scenecut=40 / intra_refresh=0 / rc_lookahead=40 / rc=2pass / mbtree=1 / bitrate=1500 / ratetol=1.0 / qcomp=0.60 / qpmin=0 / qpmax=69 / qpstep=4 / cplxblur=20.0 / qblur=0.5 / ip_ratio=1.40 / aq=1:1.00 Language : English Default : Yes Forced : No Audio ID : 2 Format : AC-3 Format/Info : Audio Coding 3 Mode extension : CM (complete main) Codec ID : A_AC3 Duration : 21mn 15s Bit rate mode : Constant Bit rate : 320 Kbps Channel(s) : 2 channels Channel positions : Front: L R Sampling rate : 48.0 KHz Bit depth : 16 bits Compression mode : Lossy Stream size : 48.7 MiB (18%) Language : English Default : Yes Forced : No Menu 00:00:00.000 : en:Left Flam Triplet 00:09:14.133 : en:Tuning 00:17:03.034 : en:Gavin/Terry 00:20:30.067 : en:Double DVD ScreenShots For more, Visit my AH-blog no mirrors , Follow The Rules “Filesonic Filepost Interchangable links.”

Gavin Harrison

You should be logged in to Download this Document. Membership is Required. Register here

Comments (0)

Currently,no comments for this book!